#TITLE:Mille Feuille;
#SUBTITLE:;
#ARTIST:Kagamine Rin;
#TITLETRANSLIT:;
#SUBTITLETRANSLIT:;
#ARTISTTRANSLIT:;
#CREDIT:;
#BANNER:Kagamine Rin - Mlle Feuille-banner.jpg;
#BACKGROUND:Kagamine Rin - Mlle Feuille-bg.jpg;
#LYRICSPATH:Kagamine Rin - Mille Feuille.lrc;
#CDTITLE:CDTitle.png;
#MUSIC:Kagamine Rin - Mille Feuille.ogg;
#OFFSET:0.040;
#SAMPLESTART:70.900;
#SAMPLELENGTH:12.000;
#SELECTABLE:YES;
#BPMS:0.000=137.000;
#STOPS:;
#BGCHANGES:;
// cache tags:
#FIRSTBEAT:2.000;
#LASTBEAT:266.000;
#SONGFILENAME:songs/Vocaloid Party/Kagamine Rin - Mille Feuille/Kagamine Rin - Mille Feuille.sm;
#HASMUSIC:1;
#HASBANNER:1;
#MUSICLENGTH:117.232;
// end cache tags

//---------------dance-single - ----------------
#NOTES:
     dance-single:
     :
     Challenge:
     10:
     0.665,0.709,0.350,0.222,0.397,479.000,41.000,26.000,38.000,4.000:
0000
0000
0000
0000
1000
0001
0100
0010
,
1000
0100
0010
0001
0010
0100
1000
0000
0010
0000
000M
0000
1000
0000
0000
0000
,
1000
0100
1000
0100
0010
0100
0010
0000
0000
0000
M001
0000
0100
0000
0010
0000
,
0100
0001
1000
0010
0100
0001
0100
0020
,
0000
0130
0001
0200
0000
0000
0000
030M
,
0010
0100
0001
1000
0010
0100
0001
0000
1000
0000
00M0
0000
0100
0000
0000
0000
,
0010
0001
0010
0001
0010
0100
0010
0000
0000
0000
0M01
0000
1000
0000
0001
0000
,
0100
0010
0100
0001
0010
1000
0010
0200
,
0000
0000
0010
0000
0010
0000
0010
0000
0310
0001
0010
0001
0200
000M
0300
0000
,
0010
0000
1000
0000
0010
0000
0100
0010
1000
0010
0100
0000
0001
0000
1000
0000
,
0020
0030
0000
0000
20L0
3000
0000
0000
L010
0000
0M00
0000
0100
0000
0001
0000
,
0100
0100
0000
0010
0000
1000
1000
0000
0100
0000
0000
1010
0000
0000
0000
0000
,
1000
1000
0000
0010
0000
0100
0100
0000
0010
1000
0000
1010
0000
0000
0010
0100
,
0010
0000
0100
0000
0001
0000
0010
0100
1000
0010
1000
0000
0100
0000
1000
0000
,
0002
0003
0000
0000
200L
3000
0000
0000
L001
0000
00M0
0000
0010
0000
0100
0000
,
0010
0010
0000
0001
0000
1000
1000
0000
0100
0000
0000
0011
0000
0000
1000
0100
,
0010
0000
0001
0000
0000
1000
0010
0000
0000
0100
0000
0010
0000
0000
1000
0100
0000
1000
0100
0000
0000
0000
0000
0000
,
0020
0000
0000
0000
2200
3300
0000
0000
0000
0000
0000
0000
LL30
0000
0000
0000
,
M100
0001
0100
0020
0000
0000
1000
0000
,
0030
0000
0000
0000
2000
0000
0000
0000
0220
0330
0000
0000
3LL0
0000
0000
0000
,
MM01
0000
0010
0100
1100
1000
0110
0010
,
M101
0000
0000
0000
2000
0000
0000
0000
0202
0303
0000
0000
3L0L
0000
0000
0000
,
010M
0010
1000
0002
0000
0000
1003
0010
,
0200
0000
0000
0000
2020
3030
0000
0000
L3L0
0000
0000
0000
1010
0000
0000
0000
,
1000
0000
0001
0000
0100
0000
0010
0000
1000
0000
0000
0001
0100
0010
0100
0000
,
0001
1000
0M10
1000
0010
0100
10M1
0010
,
0200
0000
0300
0200
0000
0310
1010
0001
,
0000
0010
010M
1000
0010
0100
01M1
1000
,
0010
0100
0010
1000
0000
0001
1001
0000
,
1000
0001
1M00
0010
0000
0100
M110
0001
,
0100
0010
1000
0010
0000
0100
0101
1000
,
0001
0000
0M01
1000
0010
0000
011M
0100
,
0001
0000
0100
0000
0010
0000
1000
0000
0010
0000
0010
1000
0010
1000
0010
0000
,
1000
0100
M010
0001
0100
0001
1M10
0100
,
0010
0100
0000
0010
0000
1000
1001
0100
,
000M
0000
0100
0010
100M
0100
1001
0000
,
0001
0100
0001
0010
0000
0001
1000
0010
,
1100
0100
0100
0010
0000
0000
1001
1000
,
1000
0000
0001
0000
0100
0010
0100
0010
1000
0100
0010
0001
1000
0000
0000
0000
,
0011
0000
1000
1000
0001
0001
1000
1010
,
0000
0101
010L
0000
0010
1000
0001
0100
,
00M1
0M1L
M1L0
1L0M
,
L001
0000
0010
0000
0001
0000
0100
0010
0000
0010
0100
0000
0001
0000
0010
0000
,
0100
1000
0010
0100
0001
1000
0100
0010
,
0001
0000
0010
0000
0100
0000
1000
0000
0010
0100
0010
0100
0001
1000
0010
0000
,
010M
0L10
1ML0
L01M
,
1ML0
0000
0001
0000
0100
0000
0010
0001
0000
0001
0010
0000
1000
0000
0010
0000
,
1000
0100
0010
0001
0010
0100
1000
0001
,
1000
0100
0010
0000
0001
0010
0100
0000
0001
1000
0001
1000
0001
0000
1000
0000
,
0001
0000
0100
0000
0010
0000
0100
0001
0100
0010
0100
0000
0001
0000
1000
0000
,
0001
0000
0100
0000
0010
0000
1000
0010
1000
0100
0010
0000
0001
0000
0010
0000
,
0011
0000
0011
0000
0110
0000
0100
1000
0100
1000
0100
0000
1000
0000
0010
0000
,
1010
0000
0011
0000
0011
0000
0001
0000
1000
0100
0010
0001
0100
0010
0100
0000
,
0001
0000
1000
0000
0001
0000
0010
0100
1000
0100
0010
0000
0100
0000
1000
0000
,
0010
0000
1000
0000
0010
0000
0100
0010
1000
0010
0100
0000
0001
0000
1000
0000
,
1001
0000
1001
0000
0101
0000
0100
0001
0010
0001
0100
0000
0010
0000
1000
0000
,
0000
0000
0000
0000
0000
0000
0000
0000
1000
0010
1000
0001
1000
0000
0000
0000
,
0001
0100
0010
0100
0010
1000
0001
1000
,
1001
L00L
1002
0M03
,
0100
0100
0000
0001
0000
1000
1000
0000
0100
0000
0000
0010
0000
0000
0000
0000
,
0001
0001
0000
0010
0000
0100
0100
0000
0010
0100
0000
0100
0000
0000
0000
0000
,
1000
0010
0100
0010
0100
0001
0100
0001
,
0110
MLL0
0110
0LLM
,
0001
0001
0000
0100
0000
0001
0001
0000
1000
0000
0000
1000
0000
0000
1000
0001
,
1000
0010
0100
0010
0100
0010
0100
0010
0000
0000
0110
0000
0102
0000
0M00
0000
,
0000
0000
0000
0000
,
0003
0000
00M0
0000
;

//---------------dance-single - ----------------
#NOTES:
     dance-single:
     :
     Hard:
     8:
     0.550,0.525,0.162,0.273,0.111,400.000,19.000,32.000,2.000,9.000:
0000
0000
0000
0000
1000
0001
1000
0010
,
1000
0001
0100
0010
,
1000
0000
0001
0010
0000
0001
1000
0001
,
1000
0100
0010
0001
0100
0010
1000
0020
,
0000
0130
0001
0200
0000
0000
0000
0000
,
0310
1000
0001
1000
,
0010
1000
0100
1000
0000
0001
0010
0100
,
1000
0001
0010
0001
0100
0010
1000
0010
,
0000
0110
0110
0110
0010
1000
0010
0000
,
0100
0001
1000
0100
1000
0100
0010
0001
,
0200
0010
0301
1001
,
0100
0001
0000
0001
0000
0001
0100
0000
0010
0000
0000
0000
1001
0000
0000
0000
,
1000
0010
0000
0010
0000
0010
1000
0000
0010
0000
1010
0000
1010
0000
0000
0000
,
0100
0010
1000
0001
0100
0010
1000
0001
,
0200
0010
0301
0101
,
0010
1000
0000
1000
0000
1000
0010
0000
0100
0000
0000
0010
0000
0000
1000
0001
,
0100
0000
0000
1001
,
2000
0000
3001
0100
0001
0100
0001
0100
,
0020
0000
1030
0100
1000
0100
1000
0100
,
0020
0000
0130
0010
0100
0010
0100
0010
,
0002
0000
1003
0010
1000
0010
1000
0000
,
1010
0000
0100
0001
0100
0001
0100
0001
,
0020
0000
0031
0010
0001
0010
0001
0010
,
0200
0000
1300
0001
1000
0001
1000
0001
,
2000
0000
0000
0000
0020
0000
3000
0000
0130
0000
0010
0100
0010
0100
0010
0000
,
1000
0100
1000
0001
0010
0001
1000
0010
,
0100
0000
0000
0001
0000
1000
0010
0100
,
0000
0001
0010
0100
1000
0100
1000
0001
,
0100
0010
0100
0010
0000
1000
0001
0000
,
1000
0100
0010
0001
0000
0010
0100
1000
,
0001
0000
1000
0010
0000
0100
0001
0010
,
0001
0000
1000
0010
0000
0000
1000
0010
,
1000
0000
0010
0000
0100
0000
0001
0000
0100
0000
0001
0100
0001
0100
0001
0000
,
1000
0010
0100
0001
1000
0010
0100
0001
,
1000
1000
0000
0001
0000
0100
0010
0100
,
0000
0001
1000
0010
,
0100
0001
0100
0010
0000
1000
0001
0100
,
0010
0010
1000
0001
0000
0000
0100
0100
,
0001
0010
0000
0000
0001
0000
1000
0000
,
0100
0000
0110
0110
0110
0001
0100
0010
,
0000
1000
0010
0000
1000
0001
1000
0010
,
0200
0020
0032
0023
,
0032
0300
1003
0010
0000
0100
0010
0100
,
0001
1000
0001
0100
0001
0100
0010
1000
,
0010
0100
0001
0100
0000
0000
0000
0000
,
0020
0000
2000
0000
3200
0000
2300
0030
,
3100
0010
0001
1000
0000
0010
0100
0010
,
1000
0001
0100
0001
1000
0100
0010
0001
,
0000
0000
0000
0000
0100
0001
1000
0010
,
2000
0200
0302
0203
,
0320
3000
0130
0010
0000
1000
0001
1000
,
0010
0100
0001
1000
0010
1000
0001
0100
,
0010
1000
0001
0100
0000
0000
0000
0000
,
0002
0000
0020
0000
2030
0003
3100
0010
,
0100
1000
0100
0010
0000
0001
1000
0010
,
0100
0001
1000
0010
1000
0010
1000
0010
,
0000
0000
0000
0000
0100
0001
0110
0000
,
1000
0010
1000
0010
0100
0001
0100
0001
,
1000
0001
0100
0010
0200
0000
03M0
0000
,
0001
1000
0000
0010
0000
0100
0001
0000
1000
0000
0000
0000
0110
0000
0000
0000
,
0001
1000
0000
0010
0000
0100
0010
0000
1000
0000
0101
0000
0101
0000
0000
0000
,
0100
0010
0100
0010
1000
0001
1000
0001
,
0100
0010
1000
0100
0020
0000
0M30
0000
,
0001
0100
0000
0010
0000
1000
0100
0000
1000
0000
0000
0010
0000
0000
0100
0001
,
0200
0000
0000
0000
0300
1010
1010
0000
;

//---------------dance-single - ----------------
#NOTES:
     dance-single:
     :
     Medium:
     6:
     0.462,0.497,0.119,0.316,0.000,328.000,14.000,37.000,0.000,0.000:
0000
0000
0000
0000
,
0200
0302
2003
3002
,
1003
0010
1000
0010
0000
1000
0001
1000
,
0010
0000
0100
0000
0001
0100
0001
0100
,
0000
0001
1000
0001
0000
0000
0000
0000
,
2000
3020
0230
0320
,
1030
0100
1000
0100
0000
1000
0001
1000
,
0001
0000
0001
0000
0001
0010
0001
0011
,
0000
0000
0100
0000
0001
0100
0001
0000
,
1000
0001
0100
0010
,
0100
0001
0110
0000
,
1000
0010
0100
0000
0020
0000
0130
0000
,
0010
1000
0010
0000
2000
0001
3001
0000
,
0100
0010
1000
0001
,
0100
0001
1100
0010
,
0100
0001
0100
0000
0010
0100
0010
0000
,
0100
0000
0001
1000
0000
0001
1000
0000
,
1010
0000
0001
0000
1000
0001
0100
0000
,
0010
0000
1000
0000
0010
0100
0010
0000
,
0100
0000
0001
0000
1000
0001
0100
0000
,
0010
0000
1000
0100
1000
0100
0010
0000
,
0011
0000
1000
0000
0001
0010
0100
0000
,
1000
0000
0010
0000
1000
0010
0100
0000
,
0001
0000
1000
0000
0010
0100
0010
0000
,
1000
0010
1000
0000
0001
0100
0001
0010
,
0001
0000
1000
0000
0001
0100
0010
1000
,
2100
3000
0200
0300
0020
0030
0002
0003
,
0021
0030
0100
0000
1000
0100
0010
0000
,
0012
0003
0020
0030
0200
0300
2000
3000
,
1200
0300
0010
0100
1000
0001
1000
0000
,
0020
0030
0020
0030
0020
0030
0020
0030
,
1020
0030
1000
0001
0000
1000
0001
0100
,
0002
0000
0000
0203
0000
0000
0302
0000
,
1003
0000
0010
0000
0100
0010
1000
0010
,
0200
0300
0002
0003
0020
0030
0200
0300
,
2000
3000
0001
0010
0001
0010
0001
0000
,
0100
0000
0010
1000
0000
0010
0100
0000
,
0002
0013
0000
0000
0000
0000
0200
0310
,
0000
0000
0001
0100
,
0010
0000
1000
0000
0001
1000
0001
0100
,
0000
0001
0010
0000
0001
0000
1000
0000
,
0010
1000
0010
0100
0010
0000
1000
0000
,
0001
0000
0100
0010
0000
1000
0010
0000
,
0100
0001
0100
0000
0010
1000
0010
0000
,
0110
0000
0100
0010
0000
0000
0000
0000
,
0100
0001
0010
0001
0100
0000
0010
0000
,
1000
0000
0010
0100
0000
0001
0100
0000
,
0010
0100
0001
0000
1000
0100
0010
0100
,
0010
0100
1000
0000
0001
0010
0001
0000
,
1000
0100
1000
0010
1000
0000
0001
0000
,
0101
0000
0010
0100
0000
0001
0100
0000
,
0001
1000
0001
0000
0100
0001
0100
0000
,
1010
0000
1000
0010
0000
0000
0000
0000
,
0100
0001
1000
0000
0010
0100
0010
0100
,
0010
0000
1000
0010
0000
1000
0100
0000
,
0010
0001
0010
0000
0101
0000
1000
0010
,
0000
0000
0000
0000
0100
0001
1000
0000
,
0010
0000
1000
0100
0010
0100
0010
0000
,
0001
0000
0100
0010
1000
1000
0001
0000
,
0100
0001
0010
0000
0200
0000
0310
0000
,
0001
1000
0010
0000
0200
0010
0310
0000
,
0100
0000
0001
0100
0010
0100
0010
0000
,
0100
0000
0001
0100
0010
0010
1000
0000
,
0001
0010
0100
0000
0010
0000
0100
1000
,
0001
0010
0100
0010
0000
0001
1000
0000
;

//---------------dance-single - ----------------
#NOTES:
     dance-single:
     :
     Easy:
     3:
     0.221,0.304,0.128,0.247,0.000,137.000,15.000,29.000,0.000,0.000:
0000
0000
0000
0000
,
2000
0000
0020
3030
0000
0000
0000
0000
,
0200
0000
0002
0303
0000
0000
0000
0000
,
1000
0001
0100
0002
,
0000
2000
0000
3003
,
1002
0000
0200
0303
0000
0000
0000
0000
,
0210
0000
0002
0303
0000
0000
0000
0000
,
2000
0000
0020
0000
,
0000
0000
3030
1010
,
0001
1000
0010
0000
,
0100
0001
0200
0300
,
0010
0000
0000
0000
2010
0000
3020
0030
,
0100
0000
0000
0000
0102
0000
0203
0300
,
0001
1000
0010
0000
,
1000
0001
0200
0300
,
0010
0000
0100
0000
,
0001
0000
0000
0000
,
1001
0000
1000
0000
,
0010
0000
0100
0000
,
0001
1000
0001
0000
,
2000
3010
0000
0000
,
0101
0000
0001
0000
,
1000
0000
0010
0000
,
0100
0000
0001
0000
,
0100
0000
0010
1000
,
0010
0000
0100
0000
,
0001
0000
1000
0000
,
0010
0000
0100
0000
,
0001
0000
0000
0000
,
1000
0000
0010
0000
,
0100
0000
0001
0000
,
1000
0000
0001
0000
,
1000
0000
0000
0000
,
0011
0000
0100
0000
,
0001
0000
1000
0000
,
0010
0000
0100
0000
,
0001
0000
1000
0000
,
0110
0000
0000
1010
,
0000
0000
2000
3020
,
0230
0000
0000
0000
0000
0000
0000
0300
,
0000
0000
0001
0100
,
0010
0000
1000
0000
,
0001
0000
1000
0000
,
0010
0000
0100
0000
,
0001
0000
0000
0000
,
1000
0000
0001
0000
,
0100
0000
0001
0000
,
1000
0000
0010
0000
,
0100
0000
0001
1000
,
0001
0000
0100
0000
,
0010
0000
0100
0000
,
0010
0000
1000
0000
,
0001
0000
0000
0000
,
1000
0000
0010
0000
,
0100
0000
0001
0000
,
0100
0000
1002
0000
,
0000
0000
0103
0110
,
1000
0001
0100
0000
,
0001
0100
2002
3003
,
1000
0000
0200
1300
,
0001
0000
0200
0310
,
1000
0001
0100
0000
,
0001
1000
0010
0000
,
0200
0000
0002
0303
,
0101
0000
0000
1100
;

//---------------dance-single - ----------------
#NOTES:
     dance-single:
     :
     Beginner:
     1:
     0.105,0.138,0.068,0.085,0.000,68.000,8.000,10.000,0.000,0.000:

0000
0000
0000
0000
,
1000
0000
0000
0000
,
0001
0000
0000
0000
,
0100
0000
0000
0000
,
0010
0000
0000
0000
,
1000
0000
0000
0000
,
0010
0000
0000
0000
,
0100
0000
0000
0000
,
0000
0000
0000
0000
,
0001
0000
1000
0000
,
0001
0000
0000
0000
,
0110
0000
0000
0000
,
0101
0000
0000
0000
,
1000
0000
0010
0000
,
1000
0000
0000
0000
,
0011
0000
0000
0000
,
1000
0000
0000
0000
,
0020
0000
0000
0000
,
2030
0000
0000
0000
,
3002
0000
0000
0000
,
0203
0000
0000
0000
,
0320
0000
0000
0000
,
2030
0000
0000
0000
,
3200
0000
0000
0000
,
2300
0000
0000
0000
,
3001
0000
0000
0000
,
0100
0000
0000
0000
,
0010
0000
0000
0000
,
0100
0000
0000
0000
,
0001
0000
0000
0000
,
1000
0000
0000
0000
,
0010
0000
0000
0000
,
0100
0000
0001
0000
,
0100
0000
0000
0000
,
0001
0000
0000
0000
,
1000
0000
0000
0000
,
0010
0000
0000
0000
,
0101
0000
0000
0110
,
0000
0000
0000
0000
,
1000
0000
0000
0000
,
0000
0000
0000
0000
,
0010
0000
0000
0000
,
0100
0000
0000
0000
,
0001
0000
0000
0000
,
1000
0000
0000
0000
,
0010
0000
0000
0000
,
0100
0000
0000
0000
,
0010
0000
0000
0000
,
0100
0000
0000
0000
,
0001
0000
0000
0000
,
1000
0000
0000
0000
,
0010
0000
0000
0000
,
1000
0000
0000
0000
,
0001
0000
0000
0000
,
0100
0000
0000
0000
,
0001
0000
0000
0000
,
0200
0000
0000
0300
,
0010
0000
1000
0000
,
0010
0000
0000
0000
,
0110
0000
0000
0000
,
1001
0000
0000
0000
,
0001
0000
0010
0000
,
0100
0000
0000
0000
,
0011
0000
0000
0000
,
2000
0000
0000
3100
;
